Naomi Dat Files


Naomi GDRom (MAME 0. Next create a cue-sheet for it, the high density layer containing game files always starts at sector 45000, or 10 minutes into the disc. Blouse & Shirt Patterns Gallery. dat Files to play the Games but all I can find are the. Naomi 2 (MAME 0. Naomi Classik known for her consistent desire to point people to Jesus through her music delivered this single in Igbo and English. Industry compliance? Check. It also works with Atomiswave roms btw, just like for Naomi you need the BIOS (awbios. BIOSes in agreement with: System. dat File for each one, but RA is not seeing them. Naomi (MAME 0. bin: Panasonic FZ-1: f47264dd47fe30f73ab3c010015c155b: panafz10. nvmem file (12 of the. 29957 Views. In operation, the Naomi GD-ROM is read only once at system power up, loading the disc's contents to the DIMM Board RAM. Jacket Vest & Coat Patterns Gallery. 0 Reviews. In her Wii U/3DS-format Mii data file, she was originally created on a Wii (1). Her Mii data file does not contain any unused data. It is my mission to help Empaths set healthy boundaries in their relationships, manage energetic overwhelm, and release self-limiting beliefs. GD-ROM was also made available as an upgrade for the Dreamcast's arcade cousin, Sega NAOMI and the later Sega NAOMI 2, providing alternate media to its cartridge-based software. Upload it using some other top secret software. Aloha! I'm Naomi! I'm an Empath, podcaster, and an Internationally Board Certified Life Coach and Neuro Linguistic Programming (NLP) Practitioner. Database 09/12/2015. Retro BIOSes. Naomi GDRom (MAME 0. Jacket Vest & Coat Patterns Gallery. She is the author of Creating More Effective Graphs , [1] a reference book on the graphical representation of data. Obiluwom rhythm and style will get you dancing and celebrating ‘He Who Has Lifted You’. The first track always starts at 00:00:00, and is variable length. Agozer 16-bit Corpse | Moderator. nvmem file (12 of the. There are three data areas on a GD-ROM disc. Her Mii data file does not contain any unused data. Making complex easy to understand – it’s our promise. Capcom vs SNK 2 Millionaire Fighting 2001 (Rev A). NAOMI LEVY [continued]: The main advice I have is to do a lot of homework first. Naomi 2 (MAME 0. Was told you need the LST Files for them, but it still does. 4) I scanned the directory full of the 111 folders. You must log in or register to reply here. Capcom vs SNK Millenium Fight 2000 Pro. Open a cmd window in the current folder (in the current folder, do [ALT] + [D], type "cmd", then [ENTER] ) 5. FILE "track03. Hey everyone! I’m Naomi Drego and I’m applying to be your representative on the Academic Board at Monash University from 2022 to 2023. Still much to do but we have the site updated, secure and back online. BIOSes in agreement with: System. 3) I have the correct BIOS file, renamed it to naomi_boot. Our elegant, affordable pieces are fully size inclusive and made by hand using high quality metals. 220 romset to works with its current emulator Flycast core. Company Description: Nikita Naomi LLC is located in Las Vegas, NV, United States and is part of the Clothing Stores Industry. Was told you need the LST Files for them, but it still does. Naomi Osaka, of Japan, throws her racket down during a match against Leylah Fernandez, of Canada, at the third round of the US Open tennis championships, Friday, Sept. 04 r136 [Windows] [32-Bit Intel] Hits: 3801 Size: 895 Kb. Tue Aug 18, 2015 1:49 pm. Industry compliance? Check. Note : the Libretro team advise to use the MAME 0. The tennis pro and the Grammy-nominated rapper began dating in 2019, with their first date being at an L. Naomi gd's always have 3 tracks, a low density data track, an audio track and a high density data track. Hey everyone! I’m Naomi Drego and I’m applying to be your representative on the Academic Board at Monash University from 2022 to 2023. Last post by RomCenter. NAOMI GDI 2 DECRYPTED. Data Management Applications for Clinical Research: REDCap and DMS. However Naomi 2 arcade roms are not supported yet. Share files for free,anywhere in the world. talos91 27 August 2018 20:53 #3. Data residency? Check. In the cmd (terminal) window, type:. bin and move it to your /recalbox/share/bios…. 3, 2021, in New York. Naomi Osaka, of Japan, throws her racket down during a match against Leylah Fernandez, of Canada, at the third round of the US Open tennis championships, Friday, Sept. Naomi is an exceptional internet filtering program that constantly monitor all internet connections and blocks those pages whose content is not appropriate for children. Last post by RomCenter. Sorry for the recent downtime. The one you want to make sure that's located in within there is epr-21576h. Skirt Patterns Gallery. Hey everyone! I’m Naomi Drego and I’m applying to be your representative on the Academic Board at Monash University from 2022 to 2023. I'm using a 0. 7A - Database (XML) User Feedback. Naomi Narvaiz ( Republican Party) ran for election to the Texas House of Representatives to represent District 45. BIOSes in agreement with: System. talos91 27 August 2018 20:53 #3. It is also used as an option on both the Sega Chihiro and Triforce. The official Sega tool isn't available publicly (although I do have it) so we use a public python script called 'triforcetools. zip file that I have appears to be a MAME BIOS file from at least version. However Naomi 2 arcade roms are not supported yet. A greedy film producer assembles a team of moviemakers and sets out for the infamous Skull Island, where they find more than just cannibalistic natives. Alternatively, you can manually place the NAOMI BIOS (naomi_bios. This Log Data may include information such as your computer’s Internet Protocol (“IP”) address, browser version, pages of our Service that you visit, the time and date of your visit, the time spent on those pages, and other statistics. 4) I scanned the directory full of the 111 folders. dat File for each one, but RA is not seeing them. Latest version. May 4, 2009 #4 I think what he means is that you need the NAOMI romsets and the corresponding CHD files. Upload it using some other top secret software. Rename this file to naomi_boot. Dress Patterns Gallery. Naomi Roms Reupload By Ghostware. exe' (from Makaron T11) & the corresponding PIC Key. 3, 2021, in New York. It is also used as an option on both the Sega Chihiro and Triforce. In Wii Music, her Mii data file is slightly different. Uploadfiles deploys a wide range of data centres located in various regions across the world. Company Description: Nikita Naomi LLC is located in Las Vegas, NV, United States and is part of the Clothing Stores Industry. From WorshipWeb. Song produced by Prinx Louis and Naomi Classik. Says you need. NAOMI DICOM Imaging Software (Compatible with DICOM 3. I know there is, i remember finding one on some forum when i started debugging reicast naomi support. bin" BINARY TRACK 03 MODE1/2352 PREGAP 10:00:00 INDEX 01 00:00:00. The first track always starts at 00:00:00, and is variable length. The first post in the series covered Level 1 – Protect Your Data in the area of Storage and Geographic Location. Naomi Classik known for her consistent desire to point people to Jesus through her music delivered this single in Igbo and English. Note : the Libretro team advise to use the MAME 0. We’re Hannah Naomi, a jewelry design studio based in Portland, Oregon. The romsets do not contain DAT files. zip download. We collaborate with multisector partners to promote and expand long-term, equitable opportunity in our hometown. So I where do I find these Roms or can I Convert the MAME Roms? The Zip Files contain the. bin and move it to your /recalbox/share/bios…. British model, actor and businesswoman Naomi Campbell received mixed reactions from South Africans following an open letter penned to former president Jacob Zuma. Hey everyone! I’m Naomi Drego and I’m applying to be your representative on the Academic Board at Monash University from 2022 to 2023. Dress Patterns Gallery. 04 r136 [Windows] [32-Bit Intel] Hits: 3801 Size: 895 Kb. AOMEI Backupper is embedded with backup, restore, and cloning. Put here ALL the. This list was created as an alternative to parents and guardians using online streaming services, without parental supervision to keep children occupied. She is the author of Creating More Effective Graphs , [1] a reference book on the graphical representation of data. 3, 2021, in New York. zip download. Rename this file to naomi_boot. Open a cmd window in the current folder (in the current folder, do [ALT] + [D], type "cmd", then [ENTER] ) 5. In short: What you have are not proper NAOMI romsets, but DAT files used with ROM managers (the most likely answer anyway, since. The Center serves as a crossroads where researchers at the interfaces between statistics, data analysis, astronomy, space and observational physics collaborate, develop and share methodologies, and together prepare the next generation of researchers. NAOMI LEVY [continued]: And the way we overcame them was to shift our focus a little bit but also to use other data sources, talk to other people, try to triangulate, try to get information from publicly available data and so forth. From WorshipWeb. Capcom vs SNK 2 Millionaire Fighting 2001 (Rev A). Events and Lectures. All structured data from the main, Property, Lexeme, and EntitySchema namespaces is available under the Creative Commons CC0 License; text in the other namespaces is available under the Creative Commons Attribution-ShareAlike License; additional terms may apply. May 9, 2020 -- The naomi. Dat Files Naomi. bin and placed it in \RetroArch\system\dc\. This Log Data may include information such as your computer’s Internet Protocol (“IP”) address, browser version, pages of our Service that you visit, the time and date of your visit, the time spent on those pages, and other statistics. Twitter flooded with Anonymous Donald Trump memes, meanwhile, netizens are asking for more revelations of the US President deeds. Capcom vs SNK Millenium Fight 2000 Pro. dat Files to play the Games but all I can find are the. Naomi Wu and associated business entities assume no responsibility for any copyright infringement that may occur as a result of compiling this list. It will make a gameid. Sorry for the recent downtime. Clippers game. LRReicast now supports Naomi and Atomiswave games, using. I’m about to enter my second year studying a double degree of Science and Global Studies. All the relevant NAOMI BIOS files are within this. Cardigan & Top Patterns Gallery. Naomi gd's always have 3 tracks, a low density data track, an audio track and a high density data track. I never used. zip Files for MAME and DEMUL. You must log in or register to reply here. Share files for free,anywhere in the world. 220 romset to works with its current emulator Flycast core. zip download. Most download managers that are specialized on one-click-hosters have this feature. (Employees and Sales figures are modelled). lst config files linked to a. Just last month, Forbes revealed that she is the highest-paid female athlete ever, earning $37 million within the previous year alone. Naomi Classik known for her consistent desire to point people to Jesus through her music delivered this single in Igbo and English. However Naomi 2 arcade roms are not supported yet. 220 romset to works with its current emulator Flycast core. Naomi 2 (MAME 0. In the lengthy Instagram post, the 51-year-old commented on the recent unrest which erupted across the country following the former president's incarnation. File Size 56. After its fast installation process, the program will be located in your taskbar. Cardigan & Top Patterns Gallery. 0*) is the user-friendly operating software, increasing practicality for doctors and staffs to support smooth and effective clinical care. Then f you want to access the program. zip) in your RetroArch system/dc/ folder. Hey everyone! I’m Naomi Drego and I’m applying to be your representative on the Academic Board at Monash University from 2022 to 2023. bin file in hexademical value. May 9, 2020 -- The naomi. I’m about to enter my second year studying a double degree of Science and Global Studies. Naomi 2 (MAME 0. • Apple Macintosh • Bandai Playdia Quick Interactive System • Bandai / Apple Pippin • Commodore Amiga CD • Commodore Amiga CD32 • Commodore Amiga CDTV • Fujitsu FM Towns series • IBM PC compatible • Mattel HyperScan • Microsoft Xbox • NEC PC-88 series • NEC PC-98 series • NEC PC-FX & PC-FXGA • NEC PC Engine CD. With Naomi Watts, Jack Black, Adrien Brody, Thomas Kretschmann. Industry compliance? Check. Due to a planned power outage on Wednesday, 10/27, between 8am-1pm PDT, some services may be impacted. bin format, you only need to creat a new system entry supporting. Whether you have files for download, or just want to upload and share, you can rely on us 24/7, 365 days a year. 4) I scanned the directory full of the 111 folders. The Dreamcast reads game data from GD-ROM optical disc, while the NAOMI arcade board features 168 MB of solid-state ROMs or GD-ROMs using a custom DIMM board and GD-ROM drive. Cardigan & Top Patterns Gallery. Datafiles Tag-Legend. This page was last edited on 23 August 2021, at 07:01. BIN file, using IsoBuster. Apr 24th, 2006. May 4, 2009 #4 I think what he means is that you need the NAOMI romsets and the corresponding CHD files. zip) in system/dc/ folder. dat file allows me to rebuild a full romset with ClrMamePro for Atomiswave and Naomi arcade games. Brutal la bomba de Anonymous!. nvmem file (12 of the. The Center serves as a crossroads where researchers at the interfaces between statistics, data analysis, astronomy, space and observational physics collaborate, develop and share methodologies, and together prepare the next generation of researchers. Obiluwom rhythm and style will get you dancing and celebrating ‘He Who Has Lifted You’. dat file allows me to rebuild a full romset with ClrMamePro for Atomiswave and Naomi arcade games. Well, you're by no means forced to use a particular download manager (even if it is an exceptionally good one, Java or not). The first track always starts at 00:00:00, and is variable length. Naomi 2 (MAME 0. Skirt Patterns Gallery. 0 Reviews. Twitter flooded with Anonymous Donald Trump memes, meanwhile, netizens are asking for more revelations of the US President deeds. From WorshipWeb. Note : the Libretro team advise to use the MAME 0. File Size 56. bin: Panasonic FZ-10. This post will cover the second cell in Level 1, File Fixity and Data Integrity. bin in a virtual drive, using. Advertisement. zip file must be a collection of. With Naomi Watts, Jack Black, Adrien Brody, Thomas Kretschmann. Extract the main game. A greedy film producer assembles a team of moviemakers and sets out for the infamous Skull Island, where they find more than just cannibalistic natives. Sega Naomi GD Rom System Roms section. The one you want to make sure that's located in within there is epr-21576h. 1/10/11 ) and Servers (Windows server 2003, 2008, 2012, 2016, 2019 and the latest Windows Server 2022), to keep OS and files on computers safe and retrieved. 7A - Database (XML) User Feedback. Naomi Classik known for her consistent desire to point people to Jesus through her music delivered this single in Igbo and English. bin) in nulldc-1--4-en-win\data and place your unzipped ROMs in nulldc-1--4-en-win\roms in their own corresponding directories. Nikita Naomi LLC has 4 total employees across all of its locations and generates $106,754 in sales (USD). BIN file, using 'DEScrypt. About Naomi Files Dat. Search: Naomi Dat Files. After bursting on the scene in 2018, within two short. Files Naomi Dat. This post will cover the second cell in Level 1, File Fixity and Data Integrity. dat file allows me to rebuild a full romset with ClrMamePro for Atomiswave and Naomi arcade games. Naomi Osaka net worth and Career Earnings: Naomi Osaka is a Japanese American professional tennis player who has a net worth of $25 million. Thanks to Grant and Naomi Day for allowing the CEC to use the story of their late son Kyran. Osaka was one of the night's co-chairs. Extract the main game. Capcom vs SNK 2 Millionaire Fighting 2001 (Rev A). This is the file you will (eventually) upload to the DIMM board. 0 Reviews. Candidate Statement: Naomi Drego. Enter this folder. dat What's inside System, firmware, or BIOS files used by libretro Version 2020-11-02 3DO Company, The - 3DO 🆗. The last value of the. zip download. Well, you're by no means forced to use a particular download manager (even if it is an exceptionally good one, Java or not). Clippers game. This Log Data may include information such as your computer’s Internet Protocol (“IP”) address, browser version, pages of our Service that you visit, the time and date of your visit, the time spent on those pages, and other statistics. Twitter flooded with Anonymous Donald Trump memes, meanwhile, netizens are asking for more revelations of the US President deeds. It will make a gameid. You will need roms that worked on nullDC Naomi. After bursting on the scene in 2018, within two short. Complete set for Sega Naomi arcade, Mame 0. Naomi GDRom (MAME 0. 2) In RetroArch I downloaded the Reicast core. [+] Top 10 ROM Downloads (click to view) 1. lsr files linked to. Naomi Osaka, of course, can financially afford to walk away from job-related stressors. BIN file, using IsoBuster. legluondunet: I didn’t find on Google if it exists a method to convert Naomi mame roms set to Reicast dat/lst files. There are three data areas on a GD-ROM disc. dat files along with a corresponding. Just last month, Forbes revealed that she is the highest-paid female athlete ever, earning $37 million within the previous year alone. So I where do I find these Roms or can I Convert the MAME Roms? The Zip Files contain the. Search: Naomi Dat Files. Pants & Shorts Patterns Gallery. bin" BINARY TRACK 03 MODE1/2352 PREGAP 10:00:00 INDEX 01 00:00:00. Naomi Osaka net worth and Career Earnings: Naomi Osaka is a Japanese American professional tennis player who has a net worth of $25 million. Tue Aug 18, 2015 1:49 pm. Was told you need the LST Files for them, but it still does. bin) in nulldc-1--4-en-win\data and place your unzipped ROMs in nulldc-1--4-en-win\roms in their own corresponding directories. Tested based on Retroarch Flycast core. These names included Ivanka and Ivana Trump, Naomi Campbell, Chris Evans (the English TV host, NOT the Marvel actor), Mick Jagger and Will Smith, just to name a few. BIOSes in agreement with: System. bin format, you only need to creat a new system entry supporting. LST, a copy of the naomi_boot bios in the DC folder in the bios shared folder, and the roms folder containing. The number is the PIC DES key for that game from my Naomi page. Links: GitHub - skmp/nulldc: nullDC, a sega dreamcast emulator for win86. Latest version. Naomi (MAME 0. bin file in hexademical value. Advertisement. It also works with Atomiswave roms btw, just like for Naomi you need the BIOS (awbios. Apr 24th, 2006. 0*) is the user-friendly operating software, increasing practicality for doctors and staffs to support smooth and effective clinical care. Designed for Windows operating system users, both PCs (Windows XP/Vista/7/8/8. Share files for free,anywhere in the world. Blouse & Shirt Patterns Gallery. Data Management Applications for Clinical Research: REDCap and DMS. Defining, designing and managing projects across property, energy, water, transport, resources and government. Files Naomi Dat. You will need roms that worked on nullDC Naomi. Tested based on Retroarch Flycast core. zip file must be a collection of. Naomi 2 (MAME 0. In operation, the Naomi GD-ROM is read only once at system power up, loading the disc's contents to the DIMM Board RAM. May 9, 2020 -- The naomi. All structured data from the main, Property, Lexeme, and EntitySchema namespaces is available under the Creative Commons CC0 License; text in the other namespaces is available under the Creative Commons Attribution-ShareAlike License; additional terms may apply. 7A - Database (XML) User Feedback. It is also used as an option on both the Sega Chihiro and Triforce. dat File for each one, but RA is not seeing them. You will need roms that worked on nullDC Naomi. and South Africa. Convert XML Dat files into RomCenter 3. To read more about the conflict between Republican factions in the. Her Mii name in her Mii data file is ナオミ. The City of Charlotte's Open Data Portal allows users to search, explore and discover relevant datasets that are served out by the City of Charlotte, NC. Share files for free,anywhere in the world. lst config files linked to a. Hey everyone! I’m Naomi Drego and I’m applying to be your representative on the Academic Board at Monash University from 2022 to 2023. 1/10/11 ) and Servers (Windows server 2003, 2008, 2012, 2016, 2019 and the latest Windows Server 2022), to keep OS and files on computers safe and retrieved. Rename this file to naomi_boot. zip Files for MAME and DEMUL. With Naomi Watts, Jack Black, Adrien Brody, Thomas Kretschmann. This BIOS is from the NAOMI M4 cartridge system and provides the most compatibility. Says you need. It enables you to adjust the images easily, enhancing its immense data from soft tissue to osseous parts with smoother and deeper contrast. Just last month, Forbes revealed that she is the highest-paid female athlete ever, earning $37 million within the previous year alone. However Naomi 2 arcade roms are not supported yet. zip Files for MAME and DEMUL. So I where do I find these Roms or can I Convert the MAME Roms? The Zip Files contain the. Advertisement. Expect more changes. Database 09/12/2015. Datafiles Tag-Legend. Post Implementation Review (PIR) Checklist. Rename this file to naomi_boot. dat files for some reason). dat What's inside System, firmware, or BIOS files used by libretro Version 2020-11-02 3DO Company, The - 3DO 🆗. Naomi Classik known for her consistent desire to point people to Jesus through her music delivered this single in Igbo and English. Naomi (MAME 0. 6) Games Supported. zip) in system/dc/ folder. 4) I scanned the directory full of the 111 folders. Code: Select all. Next File Sega Naomi - Demul v0. dat file allows me to rebuild a full romset with ClrMamePro for Atomiswave and Naomi arcade games. May 4, 2009 #4 I think what he means is that you need the NAOMI romsets and the corresponding CHD files. Clippers game. - NAOMI: MAME Naomi CHD-files supported (but not listed in dat), need CHD plugin in plugins directory - NAOMI: BIOS auto selection - NAOMI: board malfunction for A-C rev. Extract the main game. bin: Panasonic FZ-10: 51f2f43ae2f3508a14d9f56597e2d3ce: panafz10-patched. Hey everyone! I’m Naomi Drego and I’m applying to be your representative on the Academic Board at Monash University from 2022 to 2023. Twitter flooded with Anonymous Donald Trump memes, meanwhile, netizens are asking for more revelations of the US President deeds. A greedy film producer assembles a team of moviemakers and sets out for the infamous Skull Island, where they find more than just cannibalistic natives. bin in a virtual drive, using. I never used. To read more about the conflict between Republican factions in the. Capcom vs SNK 2 Millionaire Fighting 2001 (Rev A). The number is the PIC DES key for that game from my Naomi page. Apr 24th, 2006. However Naomi 2 arcade roms are not supported yet. lst file specifies the size of the. exe' (from Makaron T11) & the corresponding PIC Key. Empowering the next generation #shapethechange. With Naomi Watts, Jack Black, Adrien Brody, Thomas Kretschmann. Capcom vs SNK Millenium Fight 2000 Pro. Data Management Applications for Clinical Research: REDCap and DMS. Atomiswave Bios « [A] « Sega Naomi Date. Blouse & Shirt Patterns Gallery. Post Implementation Review (PIR) Checklist. Says you need. Then f you want to access the program. zip download. 1) Obtained a pack of 111 ROM folders, each containing a. This is the file you will (eventually) upload to the DIMM board. The number is the PIC DES key for that game from my Naomi page. Pants & Shorts Patterns Gallery. talos91 27 August 2018 20:53 #3. - NAOMI: MAME Naomi CHD-files supported (but not listed in dat), need CHD plugin in plugins directory - NAOMI: BIOS auto selection - NAOMI: board malfunction for A-C rev. So I where do I find these Roms or can I Convert the MAME Roms? The Zip Files contain the. But we know your needs don't stop there. Company Description: Nikita Naomi LLC is located in Las Vegas, NV, United States and is part of the Clothing Stores Industry. It enables you to adjust the images easily, enhancing its immense data from soft tissue to osseous parts with smoother and deeper contrast. Dreamcast CDI and GDI ROMs are unsupported at this time. NAOMI LEVY [continued]: And the way we overcame them was to shift our focus a little bit but also to use other data sources, talk to other people, try to triangulate, try to get information from publicly available data and so forth. Narvaiz lost in the Republican primary on March 6, 2018. Sega Naomi GD Rom System Roms section. Designed for Windows operating system users, both PCs (Windows XP/Vista/7/8/8. We collaborate with multisector partners to promote and expand long-term, equitable opportunity in our hometown. 3, 2021, in New York. Whether you have files for download, or just want to upload and share, you can rely on us 24/7, 365 days a year. dat File for each one, but RA is not seeing them. Naomi Narvaiz ( Republican Party) ran for election to the Texas House of Representatives to represent District 45. and South Africa. Tue Aug 18, 2015 1:49 pm. Aloha! I'm Naomi! I'm an Empath, podcaster, and an Internationally Board Certified Life Coach and Neuro Linguistic Programming (NLP) Practitioner. Capcom vs SNK Millenium Fight 2000 Pro. dat file allows me to rebuild a full romset with ClrMamePro for Atomiswave and Naomi arcade games. Company Description: Nikita Naomi LLC is located in Las Vegas, NV, United States and is part of the Clothing Stores Industry. Extract the archive in some folder. Open a cmd window in the current folder (in the current folder, do [ALT] + [D], type "cmd", then [ENTER] ) 5. The official Sega tool isn't available publicly (although I do have it) so we use a public python script called 'triforcetools. In the cmd (terminal) window, type:. Mount track03. This is the file you will (eventually) upload to the DIMM board. This Log Data may include information such as your computer’s Internet Protocol (“IP”) address, browser version, pages of our Service that you visit, the time and date of your visit, the time spent on those pages, and other statistics. Dat Files Naomi. Code: Select all. In the cmd (terminal) window, type:. Datafiles Tag-Legend. zip download. So I where do I find these Roms or can I Convert the MAME Roms? The Zip Files contain the. bin) in nulldc-1--4-en-win\data and place your unzipped ROMs in nulldc-1--4-en-win\roms in their own corresponding directories. zip Files for MAME and DEMUL. bin and move it to your ‘system directory/dc directory. It enables you to adjust the images easily, enhancing its immense data from soft tissue to osseous parts with smoother and deeper contrast. May 4, 2009 #4 I think what he means is that you need the NAOMI romsets and the corresponding CHD files. This enables us to ensure lightning fast file sharing capabilities to our customers at all times. bin file in hexademical value. We’re Hannah Naomi, a jewelry design studio based in Portland, Oregon. The tennis pro and the Grammy-nominated rapper began dating in 2019, with their first date being at an L. Extract the main game. Then f you want to access the program. Keep Your Data Safe with AOMEI Backupper. Data Management Applications for Clinical Research: REDCap and DMS. It is also used as an option on both the Sega Chihiro and Triforce. zip file that I have appears to be a MAME BIOS file from at least version. lsr files linked to. But we know your needs don't stop there. Nikita Naomi LLC has 4 total employees across all of its locations and generates $106,754 in sales (USD). Latest version. To read more about the conflict between Republican factions in the. dat file allows me to rebuild a full romset with ClrMamePro for Atomiswave and Naomi arcade games. 220 romset to works with its current emulator Flycast core. Put here ALL the. In the cmd (terminal) window, type:. NAOMI DICOM Imaging Software (Compatible with DICOM 3. the naomi dat files are in zip files. Well, you're by no means forced to use a particular download manager (even if it is an exceptionally good one, Java or not). Company Description: Nikita Naomi LLC is located in Las Vegas, NV, United States and is part of the Clothing Stores Industry. Naomi GDRom (MAME 0. In Wii Music, her Mii data file is slightly different. Naomi (MAME 0. For an overall explanation of the Levels, see this short white paper The NDSA Levels of Digital Preservation: An Explanation and Uses (pdf). Tested based on Retroarch Flycast core. Blouse & Shirt Patterns Gallery. In short: What you have are not proper NAOMI romsets, but DAT files used with ROM managers (the most likely answer anyway, since you didn't provide more detailed info). Pants & Shorts Patterns Gallery. 209 MAME set I believe and no issue so far, you just need to put the Naomi BIOS (naomi. bin and move it to your ‘system directory/dc directory. AOMEI Backupper is embedded with backup, restore, and cloning. bin: Panasonic FZ-10. 29957 Views. I know there is, i remember finding one on some forum when i started debugging reicast naomi support. These will typically be. Single Set of Cremains Whispering Breath of Mystery, rattling the windows of our spirits with tears and sorrow, draw us back to the wonderful, the lovin Offering Call for Growing Our Diversity. BIN file, using IsoBuster. There are three data areas on a GD-ROM disc. zip file must be a collection of. In one photo, Osaka poses in the mirror while her boyfriend reads a book in the background. Making complex easy to understand – it’s our promise. Expect more changes. It will make a gameid. The number is the PIC DES key for that game from my Naomi page. The first post in the series covered Level 1 – Protect Your Data in the area of Storage and Geographic Location. by maeztro » Fri Jul 17, 2015 11:42 am. Not active anymore, reicast is the new cool project :p Downloads: nullDC 1. NAOMI LEVY [continued]: The main advice I have is to do a lot of homework first. Empowering the next generation #shapethechange. zip) in your RetroArch system/dc/ folder. Sorry for the recent downtime. The City of Charlotte's Open Data Portal allows users to search, explore and discover relevant datasets that are served out by the City of Charlotte, NC. What content to use. Strict data privacy? Check. bin" BINARY TRACK 03 MODE1/2352 PREGAP 10:00:00 INDEX 01 00:00:00. The number is the PIC DES key for that game from my Naomi page. Addeddate 2020-04-21 21:54:51 Identifier naomiromset_mame0. FILE "track03. Naomi Classik known for her consistent desire to point people to Jesus through her music delivered this single in Igbo and English. The romsets do not contain DAT files. Climate Careers Zone. bin) in nulldc-1--4-en-win\data and place your unzipped ROMs in nulldc-1--4-en-win\roms in their own corresponding directories. We collaborate with multisector partners to promote and expand long-term, equitable opportunity in our hometown. I know there is, i remember finding one on some forum when i started debugging reicast naomi support. Dat Files Naomi. 218 Scanner download 127 files. Due to a planned power outage on Wednesday, 10/27, between 8am-1pm PDT, some services may be impacted. We design jewelry for every body and every style. The first track always starts at 00:00:00, and is variable length. Naomi 2 (MAME 0. It enables you to adjust the images easily, enhancing its immense data from soft tissue to osseous parts with smoother and deeper contrast. Rename this file to naomi_boot. Agozer 16-bit Corpse | Moderator. bin and move it to your /recalbox/share/bios…. I'm using a 0. Naomi 2 (MAME 0. Cookies Cookies are files with small amount of data that is commonly used an anonymous unique identifier. We work to increase postsecondary attainment while eliminating equity gaps in the U. legluondunet: I didn’t find on Google if it exists a method to convert Naomi mame roms set to Reicast dat/lst files. Sorry for the recent downtime. The Center serves as a crossroads where researchers at the interfaces between statistics, data analysis, astronomy, space and observational physics collaborate, develop and share methodologies, and together prepare the next generation of researchers. dat What's inside System, firmware, or BIOS files used by libretro Version 2020-11-02 3DO Company, The - 3DO 🆗. With Naomi Watts, Jack Black, Adrien Brody, Thomas Kretschmann. 4) I scanned the directory full of the 111 folders. LST, a copy of the naomi_boot bios in the DC folder in the bios shared folder, and the roms folder containing. For an overall explanation of the Levels, see this short white paper The NDSA Levels of Digital Preservation: An Explanation and Uses (pdf). This enables us to ensure lightning fast file sharing capabilities to our customers at all times. Naomi Roms for Retroarch Reicast. Well, you're by no means forced to use a particular download manager (even if it is an exceptionally good one, Java or not). Nov 30, 2020 -- This is a file that is contained inside the MAME NAOMI bios zip. Industry compliance? Check. zip download. Defining, designing and managing projects across property, energy, water, transport, resources and government. Her Mii name in her Mii data file is ナオミ. A Blessing for the Ashes. legluondunet: I didn’t find on Google if it exists a method to convert Naomi mame roms set to Reicast dat/lst files. Brutal la bomba de Anonymous!. Upload it using some other top secret software. This list was created as an alternative to parents and guardians using online streaming services, without parental supervision to keep children occupied. zip Files for MAME and DEMUL. Each HN piece is designed to be mixed and matched for a look that is minimalist in style but endless in possibilities. Instructions: During the project planning stage determine at what points after implementation you will review it. It is my mission to help Empaths set healthy boundaries in their relationships, manage energetic overwhelm, and release self-limiting beliefs. Cardigan & Top Patterns Gallery. The Dreamcast reads game data from GD-ROM optical disc, while the NAOMI arcade board features 168 MB of solid-state ROMs or GD-ROMs using a custom DIMM board and GD-ROM drive. Complete set for Sega Naomi arcade, Mame 0. Through Creative Placemaking, we position culture and creativity as drivers of more just communities. We design jewelry for every body and every style. There are three data areas on a GD-ROM disc. With Naomi Watts, Jack Black, Adrien Brody, Thomas Kretschmann. 4) I scanned the directory full of the 111 folders. Extract the archive in some folder. Data residency? Check. We work to increase postsecondary attainment while eliminating equity gaps in the U. All the relevant NAOMI BIOS files are within this. Jacket Vest & Coat Patterns Gallery. The tennis pro and the Grammy-nominated rapper began dating in 2019, with their first date being at an L. The one you want to make sure that's located in within there is epr-21576h. From WorshipWeb. Still much to do but we have the site updated, secure and back online. The Center serves as a crossroads where researchers at the interfaces between statistics, data analysis, astronomy, space and observational physics collaborate, develop and share methodologies, and together prepare the next generation of researchers. lst file specifies the size of the. legluondunet: I didn't find on Google if it exists a method to convert Naomi mame roms set to Reicast dat/lst files. Tested based on Retroarch Flycast core. Naomi Osaka, of course, can financially afford to walk away from job-related stressors. Note : the Libretro team advise to use the MAME 0. bin and placed it in \RetroArch\system\dc\. All structured data from the main, Property, Lexeme, and EntitySchema namespaces is available under the Creative Commons CC0 License; text in the other namespaces is available under the Creative Commons Attribution-ShareAlike License; additional terms may apply. Due to a planned power outage on Wednesday, 10/27, between 8am-1pm PDT, some services may be impacted. Dress Patterns Gallery. 4) I scanned the directory full of the 111 folders. MAKING COMPLEX EASY. zip download. zip file that I have appears to be a MAME BIOS file from at least version. Latest version. BIN files from the game's VFS in the same folder as the extracted scripts from the archive. 67 kB; HyperBase Version. Note : the Libretro team advise to use the MAME 0. Naomi Robbins (née Bograd), also known by her initials NBR, is an American statistician, expert in data visualization, graphical data presentation consultant and author. Tested based on Retroarch Flycast core. lst file specifies the size of the. legluondunet: I didn’t find on Google if it exists a method to convert Naomi mame roms set to Reicast dat/lst files. This page was last edited on 23 August 2021, at 07:01. and South Africa. Still much to do but we have the site updated, secure and back online. Capcom vs SNK Millenium Fight 2000 Pro. Blouse & Shirt Patterns Gallery. Narvaiz lost in the Republican primary on March 6, 2018. Capcom vs SNK 2 Millionaire Fighting 2001 (Rev A). bin in a virtual drive, using. zip file that I have appears to be a MAME BIOS file from at least version. Hello all!On today's episode of on a technicality, we will be showing you how to take MAME CHD (compressed hunks of data) files and using CHDMAN to extract a. We work to increase postsecondary attainment while eliminating equity gaps in the U. zip Files for MAME and DEMUL. It is also used as an option on both the Sega Chihiro and Triforce. by maeztro » Fri Jul 17, 2015 11:42 am. Naomi Narvaiz ( Republican Party) ran for election to the Texas House of Representatives to represent District 45. The romsets do not contain DAT files. Clippers game. dat File for each one, but RA is not seeing them. The City of Charlotte's Open Data Portal allows users to search, explore and discover relevant datasets that are served out by the City of Charlotte, NC. What content to use. While it's mostly the same as it is in Wii Sports Resort, it now includes a filled out Mii ID and console ID. Comic Age Platinum : Published before 1938 Gold : Usually between 1938 to 1950-55 Silver : Usually between 1954-56 to 1970 Bronze : Usually between 1970 to 1984 Copper : Usually between 1984 to 1991 Modern- 1992 to current. legluondunet: I didn’t find on Google if it exists a method to convert Naomi mame roms set to Reicast dat/lst files. Naomi King. The Dreamcast reads game data from GD-ROM optical disc, while the NAOMI arcade board features 168 MB of solid-state ROMs or GD-ROMs using a custom DIMM board and GD-ROM drive. Keep Your Data Safe with AOMEI Backupper. Code: Select all. lsr files linked to. In one photo, Osaka poses in the mirror while her boyfriend reads a book in the background. bin" BINARY TRACK 03 MODE1/2352 PREGAP 10:00:00 INDEX 01 00:00:00. LRReicast now supports Naomi and Atomiswave games, using. 4) I scanned the directory full of the 111 folders. The tennis pro and the Grammy-nominated rapper began dating in 2019, with their first date being at an L. Naomi Osaka net worth and Career Earnings: Naomi Osaka is a Japanese American professional tennis player who has a net worth of $25 million. 0*) is the user-friendly operating software, increasing practicality for doctors and staffs to support smooth and effective clinical care. The last value of the. Retro BIOSes. bin format, you only need to creat a new system entry supporting. However Naomi 2 arcade roms are not supported yet. Tested based on Retroarch Flycast core. GD-ROM was also made available as an upgrade for the Dreamcast's arcade cousin, Sega NAOMI and the later Sega NAOMI 2, providing alternate media to its cartridge-based software. Narvaiz ran in one of 48 contested Texas state legislative Republican primaries in 2018. We design jewelry for every body and every style. LST, a copy of the naomi_boot bios in the DC folder in the bios shared folder, and the roms folder containing. 3, 2021, in New York. dat What's inside System, firmware, or BIOS files used by libretro Version 2020-11-02 3DO Company, The - 3DO 🆗. These will typically be. Still much to do but we have the site updated, secure and back online. Naomi Narvaiz ( Republican Party) ran for election to the Texas House of Representatives to represent District 45. The last value of the. This post will cover the second cell in Level 1, File Fixity and Data Integrity. While it's mostly the same as it is in Wii Sports Resort, it now includes a filled out Mii ID and console ID. Retro BIOSes. King Kong: Directed by Peter Jackson.